Attack on Titan OADs (1080p x265 HEVC 10bit BluRay Dual Audio AAC/FLAC) Prof]

seeders: 4
leechers: 2
updated:
Added by Prof in Anime > Dual Audio

Download Fast Safe Anonymous
movies, software, shows...
  • Downloads: 43
  • Language: English

Files

Attack on Titan OADs
  • S00E05 - A Choice with No Regrets (Part 2).mkv (1.7 GB)
  • S00E02 - The Sudden Visitor The Torturous Curse of Youth.mkv (1.3 GB)
  • S00E03 - Distress.mkv (1.2 GB)
  • S00E04 - A Choice with No Regrets (Part 1).mkv (1.2 GB)
  • S00E01 - Ilse`s Notebook - Memoirs of a Recon Corps Member.mkv (1.2 GB)
  • S00E06 - Wall Sina, Goodbye (Part 1).mkv (1.0 GB)
  • S00E07 - Wall Sina, Goodbye (Part 2).mkv (1.1 GB)
  • S00E08 - Lost in the Cruel World.mkv (1.1 GB)

Description










Code:

General

Format : Matroska
Format version : Version 4
File size : 1.24 GiB
Duration : 23 min 20 s
Overall bit rate mode : Variable
Overall bit rate : 7 576 kb/s
Encoded date : UTC 2022-07-02 07:15:13
Writing application : mkvmerge v67.0.0 ('Under Stars') 64-bit
Writing library : libebml v1.4.2 + libmatroska v1.6.4
Attachments : AdobeArabic-Bold.otf / AdobeArabic-BoldItalic.otf / AdobeArabic-Italic.otf / AdobeArabic-Regular.otf / AmazObitaemOstrovCrazy!.ttf / Arial_0.ttf / arialbd.ttf / arialbi.ttf / ariblk_0.ttf / calibri.ttf / Cardo-Regular.ttf / comic_0.ttf / comicbd.ttf / georgia_0.ttf / georgiab.ttf / georgiaz.ttf / impact_0.ttf / KozMinPro-Medium.otf / LLCOOPER.ttf / MS Mincho.ttc / ObeliskMdITC TT.ttf / Openc.ttf / Tahoma_0.ttf / times_0.ttf / trebuc_0.ttf / verdana_0.ttf / Volkhov-Regular.ttf

Video
ID : 1
Format : HEVC
Format/Info : High Efficiency Video Coding
Format profile : Main [email protected]@Main
Codec ID : V_MPEGH/ISO/HEVC
Duration : 23 min 19 s
Bit rate : 5 719 kb/s
Width : 1 920 pixels
Height : 1 080 pixels
Display aspect ratio : 16:9
Frame rate mode : Variable
Frame rate : 23.976 (24000/1001) FPS
Color space : YUV
Chroma subsampling : 4:2:0
Bit depth : 10 bits
Bits/(Pixel*Frame) : 0.115
Stream size : 954 MiB (75%)
Writing library : x265 3.5+37+12-4e46995bc:[Windows][MSVC 1931][64 bit] 10bit
Encoding settings : cpuid=1111039 / frame-threads=4 / numa-pools=24 / wpp / no-pmode / no-pme / no-psnr / no-ssim / log-level=2 / input-csp=1 / input-res=1920x1080 / interlace=0 / total-frames=33566 / level-idc=0 / high-tier=1 / uhd-bd=0 / ref=5 / no-allow-non-conformance / no-repeat-headers / annexb / no-aud / no-eob / no-eos / no-hrd / info / hash=0 / no-temporal-layers / open-gop / min-keyint=23 / keyint=250 / gop-lookahead=0 / bframes=8 / b-adapt=2 / b-pyramid / bframe-bias=0 / rc-lookahead=80 / lookahead-slices=0 / scenecut=40 / no-hist-scenecut / radl=0 / no-splice / no-intra-refresh / ctu=64 / min-cu-size=8 / rect / amp / max-tu-size=32 / tu-inter-depth=4 / tu-intra-depth=4 / limit-tu=0 / rdoq-level=2 / dynamic-rd=0.00 / no-ssim-rd / signhide / tskip / nr-intra=0 / nr-inter=0 / no-constrained-intra / strong-intra-smoothing / max-merge=5 / limit-refs=0 / no-limit-modes / me=3 / subme=5 / merange=92 / temporal-mvp / no-frame-dup / no-hme / weightp / weightb / no-analyze-src-pics / deblock=0:0 / sao / no-sao-non-deblock / rd=6 / selective-sao=4 / no-early-skip / no-rskip / no-fast-intra / no-tskip-fast / no-cu-lossless / b-intra / no-splitrd-skip / rdpenalty=0 / psy-rd=2.00 / psy-rdoq=1.00 / no-rd-refine / no-lossless / cbqpoffs=0 / crqpoffs=0 / rc=crf / crf=18.0 / qcomp=0.60 / qpstep=4 / stats-write=0 / stats-read=0 / ipratio=1.40 / pbratio=1.30 / aq-mode=3 / aq-strength=1.00 / aq-bias-strength=1.00 / cutree / zone-count=0 / no-strict-cbr / qg-size=32 / no-rc-grain / qpmax=69 / qpmin=0 / no-const-vbv / sar=0 / overscan=0 / videoformat=5 / range=0 / colorprim=2 / transfer=2 / colormatrix=2 / chromaloc=0 / display-window=0 / cll=0,0 / min-luma=0 / max-luma=1023 / log2-max-poc-lsb=8 / vui-timing-info / vui-hrd-info / slices=1 / no-opt-qp-pps / no-opt-ref-list-length-pps / no-multi-pass-opt-rps / scenecut-bias=0.05 / hist-threshold=0.03 / no-opt-cu-delta-qp / no-aq-motion / no-hdr10 / no-hdr10-opt / no-dhdr10-opt / no-idr-recovery-sei / analysis-reuse-level=0 / analysis-save-reuse-level=0 / analysis-load-reuse-level=0 / scale-factor=0 / refine-intra=0 / refine-inter=0 / refine-mv=1 / refine-ctu-distortion=0 / no-limit-sao / ctu-info=0 / no-lowpass-dct / refine-analysis-type=0 / copy-pic=1 / max-ausize-factor=1.0 / no-dynamic-refine / no-single-sei / no-hevc-aq / no-svt / no-field / qp-adaptation-range=1.00 / scenecut-aware-qp=0conformance-window-offsets / right=0 / bottom=0 / decoder-max-rate=0 / no-vbv-live-multi-pass
Default : Yes
Forced : No

Audio #1
ID : 2
Format : AAC LC
Format/Info : Advanced Audio Codec Low Complexity
Codec ID : A_AAC-2
Duration : 23 min 19 s
Bit rate : 256 kb/s
Channel(s) : 2 channels
Channel layout : L R
Sampling rate : 48.0 kHz
Frame rate : 46.875 FPS (1024 SPF)
Compression mode : Lossy
Delay relative to video : 2 ms
Stream size : 42.7 MiB (3%)
Title : AAC 2.0
Language : English
Default : Yes
Forced : No

Audio #2
ID : 3
Format : FLAC
Format/Info : Free Lossless Audio Codec
Codec ID : A_FLAC
Duration : 23 min 20 s
Bit rate mode : Variable
Bit rate : 1 477 kb/s
Channel(s) : 2 channels
Channel layout : L R
Sampling rate : 48.0 kHz
Frame rate : 10.417 FPS (4608 SPF)
Bit depth : 24 bits
Compression mode : Lossless
Delay relative to video : 10 ms
Stream size : 246 MiB (19%)
Title : FLAC 2.0
Writing library : Lavf59.20.101
Language : Japanese
Default : No
Forced : No

Text #1
ID : 4
Format : ASS
Codec ID : S_TEXT/ASS
Codec ID/Info : Advanced Sub Station Alpha
Duration : 22 min 21 s
Bit rate : 696 b/s
Count of elements : 981
Compression mode : Lossless
Stream size : 114 KiB (0%)
Title : Signs & Songs
Language : English
Default : Yes
Forced : No

Text #2
ID : 5
Format : ASS
Codec ID : S_TEXT/ASS
Codec ID/Info : Advanced Sub Station Alpha
Duration : 23 min 13 s
Bit rate : 761 b/s
Count of elements : 1268
Compression mode : Lossless
Stream size : 129 KiB (0%)
Title : Full Subtitles
Language : English
Default : No
Forced : No

Text #3
ID : 6
Format : ASS
Codec ID : S_TEXT/ASS
Codec ID/Info : Advanced Sub Station Alpha
Duration : 21 min 42 s
Bit rate : 105 b/s
Count of elements : 236
Compression mode : Lossless
Stream size : 16.8 KiB (0%)
Title : Portuguese(Brazil)
Language : Portuguese
Default : No
Forced : No

Text #4
ID : 7
Format : ASS
Codec ID : S_TEXT/ASS
Codec ID/Info : Advanced Sub Station Alpha
Duration : 21 min 42 s
Bit rate : 108 b/s
Count of elements : 253
Compression mode : Lossless
Stream size : 17.2 KiB (0%)
Title : Spanish(Latin_America)
Language : Spanish
Default : No
Forced : No

Text #5
ID : 8
Format : ASS
Codec ID : S_TEXT/ASS
Codec ID/Info : Advanced Sub Station Alpha
Duration : 21 min 42 s
Bit rate : 108 b/s
Count of elements : 253
Compression mode : Lossless
Stream size : 17.3 KiB (0%)
Title : Spanish
Language : Spanish
Default : No
Forced : No

Text #6
ID : 9
Format : ASS
Codec ID : S_TEXT/ASS
Codec ID/Info : Advanced Sub Station Alpha
Duration : 21 min 43 s
Bit rate : 136 b/s
Count of elements : 289
Compression mode : Lossless
Stream size : 21.7 KiB (0%)
Title : Arabic
Language : Arabic
Default : No
Forced : No

Text #7
ID : 10
Format : ASS
Codec ID : S_TEXT/ASS
Codec ID/Info : Advanced Sub Station Alpha
Duration : 23 min 17 s
Bit rate : 107 b/s
Count of elements : 276
Compression mode : Lossless
Stream size : 18.3 KiB (0%)
Title : French
Language : French
Default : No
Forced : No

Text #8
ID : 11
Format : ASS
Codec ID : S_TEXT/ASS
Codec ID/Info : Advanced Sub Station Alpha
Duration : 23 min 19 s
Bit rate : 109 b/s
Count of elements : 264
Compression mode : Lossless
Stream size : 18.8 KiB (0%)
Title : German
Language : German
Default : No
Forced : No

Text #9
ID : 12
Format : ASS
Codec ID : S_TEXT/ASS
Codec ID/Info : Advanced Sub Station Alpha
Duration : 21 min 42 s
Bit rate : 131 b/s
Count of elements : 335
Compression mode : Lossless
Stream size : 20.9 KiB (0%)
Title : Italian
Language : Italian
Default : No
Forced : No

Text #10
ID : 13
Format : ASS
Codec ID : S_TEXT/ASS
Codec ID/Info : Advanced Sub Station Alpha
Duration : 21 min 42 s
Bit rate : 180 b/s
Count of elements : 367
Compression mode : Lossless
Stream size : 28.6 KiB (0%)
Title : Russian
Language : Russian
Default : No
Forced : No

Menu
00:00:00.000 : en:Intro
00:02:04.832 : en:Opening
00:03:37.008 : en:Part A
00:12:20.990 : en:Part B
00:21:49.058 : en:Ending



Download torrent
9.7 GB
seeders:4
leechers:2
Attack on Titan OADs (1080p x265 HEVC 10bit BluRay Dual Audio AAC/FLAC) Prof]


Trackers

tracker name
udp://tracker.opentrackr.org:1337/announce
udp://tracker.torrent.eu.org:451/announce
µTorrent compatible trackers list

Download torrent
9.7 GB
seeders:4
leechers:2
Attack on Titan OADs (1080p x265 HEVC 10bit BluRay Dual Audio AAC/FLAC) Prof]


Torrent hash: 28A1CA38ED830C7A1D37458B5C5C804F80180CFA