The Garden of Sinners Chapter 1: Overlooking View (2007) (1080p x265 HEVC 10bit BluRay FLAC) [Prof]

seeders: 6
leechers: 0
updated:
Added by Prof in Anime > Subbed

Download Fast Safe Anonymous
movies, software, shows...
  • Downloads: 39
  • Language: Japanese

Files

  • The Garden of Sinners Chapter 1 - Overlooking View (2007).mkv (1.1 GB)

Description









Code:

General

Format : Matroska
Format version : Version 4
File size : 1.11 GiB
Duration : 50 min 9 s
Overall bit rate mode : Variable
Overall bit rate : 3 180 kb/s
Encoded date : UTC 2022-07-23 09:41:12
Writing application : mkvmerge v67.0.0 ('Under Stars') 64-bit
Writing library : libebml v1.4.2 + libmatroska v1.6.4
Attachments : AJensonPro-SemiboldItSubh.ttf / AJensonPro-SemiboldSubh.ttf / Another.ttf / arial.ttf / CALIBRI.ttf / ChaparralPro-Semibold.ttf / ChaparralPro-SemiboldIt.ttf / FRML436N.ttf / Georgia Italic.ttf / Georgia.ttf / LT_51537.ttf / NITEMARE.ttf / VIKING-N.ttf

Video
ID : 1
Format : HEVC
Format/Info : High Efficiency Video Coding
Format profile : Main [email protected]@Main
Codec ID : V_MPEGH/ISO/HEVC
Duration : 50 min 9 s
Bit rate : 1 836 kb/s
Width : 1 920 pixels
Height : 1 080 pixels
Display aspect ratio : 16:9
Frame rate mode : Variable
Frame rate : 23.976 FPS
Color space : YUV
Chroma subsampling : 4:2:0
Bit depth : 10 bits
Bits/(Pixel*Frame) : 0.037
Stream size : 659 MiB (58%)
Writing library : x265 3.5+37+12-4e46995bc:[Windows][MSVC 1931][64 bit] 10bit
Encoding settings : cpuid=1111039 / frame-threads=4 / numa-pools=16 / wpp / no-pmode / no-pme / no-psnr / no-ssim / log-level=2 / input-csp=1 / input-res=1920x1080 / interlace=0 / total-frames=72145 / level-idc=0 / high-tier=1 / uhd-bd=0 / ref=5 / no-allow-non-conformance / no-repeat-headers / annexb / no-aud / no-eob / no-eos / no-hrd / info / hash=0 / no-temporal-layers / open-gop / min-keyint=23 / keyint=250 / gop-lookahead=0 / bframes=8 / b-adapt=2 / b-pyramid / bframe-bias=0 / rc-lookahead=80 / lookahead-slices=0 / scenecut=40 / no-hist-scenecut / radl=0 / no-splice / no-intra-refresh / ctu=64 / min-cu-size=8 / rect / amp / max-tu-size=32 / tu-inter-depth=4 / tu-intra-depth=4 / limit-tu=0 / rdoq-level=2 / dynamic-rd=0.00 / no-ssim-rd / signhide / tskip / nr-intra=0 / nr-inter=0 / no-constrained-intra / strong-intra-smoothing / max-merge=5 / limit-refs=0 / no-limit-modes / me=3 / subme=5 / merange=92 / temporal-mvp / no-frame-dup / no-hme / weightp / weightb / no-analyze-src-pics / deblock=0:0 / sao / no-sao-non-deblock / rd=6 / selective-sao=4 / no-early-skip / no-rskip / no-fast-intra / no-tskip-fast / no-cu-lossless / b-intra / no-splitrd-skip / rdpenalty=0 / psy-rd=2.00 / psy-rdoq=1.00 / no-rd-refine / no-lossless / cbqpoffs=0 / crqpoffs=0 / rc=crf / crf=18.0 / qcomp=0.60 / qpstep=4 / stats-write=0 / stats-read=0 / ipratio=1.40 / pbratio=1.30 / aq-mode=3 / aq-strength=1.00 / aq-bias-strength=1.00 / cutree / zone-count=0 / no-strict-cbr / qg-size=32 / no-rc-grain / qpmax=69 / qpmin=0 / no-const-vbv / sar=0 / overscan=0 / videoformat=5 / range=0 / colorprim=1 / transfer=1 / colormatrix=1 / chromaloc=0 / display-window=0 / cll=0,0 / min-luma=0 / max-luma=1023 / log2-max-poc-lsb=8 / vui-timing-info / vui-hrd-info / slices=1 / no-opt-qp-pps / no-opt-ref-list-length-pps / no-multi-pass-opt-rps / scenecut-bias=0.05 / hist-threshold=0.03 / no-opt-cu-delta-qp / no-aq-motion / no-hdr10 / no-hdr10-opt / no-dhdr10-opt / no-idr-recovery-sei / analysis-reuse-level=0 / analysis-save-reuse-level=0 / analysis-load-reuse-level=0 / scale-factor=0 / refine-intra=0 / refine-inter=0 / refine-mv=1 / refine-ctu-distortion=0 / no-limit-sao / ctu-info=0 / no-lowpass-dct / refine-analysis-type=0 / copy-pic=1 / max-ausize-factor=1.0 / no-dynamic-refine / no-single-sei / no-hevc-aq / no-svt / no-field / qp-adaptation-range=1.00 / scenecut-aware-qp=0conformance-window-offsets / right=0 / bottom=0 / decoder-max-rate=0 / no-vbv-live-multi-pass
Default : Yes
Forced : No
Color range : Limited
Color primaries : BT.709
Transfer characteristics : BT.709
Matrix coefficients : BT.709

Audio
ID : 2
Format : FLAC
Format/Info : Free Lossless Audio Codec
Codec ID : A_FLAC
Duration : 50 min 9 s
Bit rate mode : Variable
Bit rate : 1 336 kb/s
Channel(s) : 2 channels
Channel layout : L R
Sampling rate : 48.0 kHz
Frame rate : 10.417 FPS (4608 SPF)
Bit depth : 24 bits
Compression mode : Lossless
Stream size : 479 MiB (42%)
Title : FLAC 2.0
Writing library : Lavf59.20.101
Language : Japanese
Default : Yes
Forced : No

Text
ID : 3
Format : ASS
Codec ID : S_TEXT/ASS
Codec ID/Info : Advanced Sub Station Alpha
Duration : 49 min 37 s
Bit rate : 102 b/s
Count of elements : 513
Compression mode : Lossless
Stream size : 37.3 KiB (0%)
Title : Styled Subs [Retail]
Language : English
Default : Yes
Forced : No

Menu
00:00:00.000 : en:00:00:00.000
00:02:21.850 : en:00:02:21.850
00:04:13.837 : en:00:04:13.837
00:14:00.131 : en:00:14:00.131
00:18:30.276 : en:00:18:30.276
00:25:14.430 : en:00:25:14.430
00:29:16.672 : en:00:29:16.672
00:37:25.910 : en:00:37:25.910
00:43:21.182 : en:00:43:21.182
00:47:26.677 : en:00:47:26.677
00:49:02.565 : en:00:49:02.565



Source: Remux 12.3 GB



Download torrent
1.1 GB
seeders:6
leechers:0
The Garden of Sinners Chapter 1: Overlooking View (2007) (1080p x265 HEVC 10bit BluRay FLAC) [Prof]


Trackers

tracker name
udp://tracker.opentrackr.org:1337/announce
udp://tracker.torrent.eu.org:451/announce
µTorrent compatible trackers list

Download torrent
1.1 GB
seeders:6
leechers:0
The Garden of Sinners Chapter 1: Overlooking View (2007) (1080p x265 HEVC 10bit BluRay FLAC) [Prof]


Torrent hash: F136A6CCF2A714338357E6E3790AC0C9FEB37CF6